#TITLE:Progressive;
#SUBTITLE:SDO Taiwan lv31 - [N]hok[Q] Simfile;
#ARTIST:Kalafina;
#TITLETRANSLIT:;
#SUBTITLETRANSLIT:;
#ARTISTTRANSLIT:;
#CREDIT:[N]hok[Q] ;
#BANNER:bn.png;
#BACKGROUND:bg.png;
#LYRICSPATH:;
#CDTITLE:cd.png;
#MUSIC:Progressive.mp3;
#OFFSET:0.000;
#SAMPLESTART:39.733;
#SAMPLELENGTH:12.000;
#SELECTABLE:YES;
#DISPLAYBPM:100.000:300.000;
#BPMS:0.000=151.030,2.000=151.023,3.000=151.015,4.000=151.007,5.000=150.999,6.000=151.030,8.000=151.023,9.000=151.015,10.000=151.007,11.000=150.999,12.000=151.030,14.000=151.023,15.000=151.015,16.000=151.007,17.000=150.999,19.000=151.030,21.000=151.023,22.000=151.015,23.000=151.007,24.000=150.999,25.000=151.030,27.000=150.999,28.000=151.023,29.000=150.999,30.000=151.015,31.000=150.999,32.000=151.007,33.000=151.030,34.000=150.999,35.000=151.030,36.000=150.999,37.000=151.023,38.000=150.999,39.000=151.015,40.000=150.999,41.000=151.030,42.000=150.999,43.000=151.030,44.000=150.999,45.000=151.023,46.000=150.999,47.000=151.015,48.000=150.999,49.000=151.030,50.000=150.999,51.000=151.030,52.000=150.999,53.000=151.023,54.000=150.999,56.000=151.007,57.000=151.015,58.000=150.999,60.000=151.007,61.000=150.999,63.000=151.007,64.000=150.999,65.000=151.007,66.000=150.999,68.000=151.007,69.000=150.999,71.000=151.007,72.000=150.999,73.000=151.007,74.000=300.000,74.500=100.890,75.000=300.063,75.500=100.883,76.000=300.000,76.500=100.890,77.000=150.999,79.000=151.007,80.000=150.999,81.000=151.007,82.000=300.000,82.500=100.890,83.000=300.000,83.500=100.890,84.000=300.000,84.500=100.890,85.000=150.999,87.000=151.007,88.000=150.999,89.000=151.007,90.000=300.000,90.500=100.890,91.000=300.000,91.500=100.890,92.000=300.000,92.500=100.890,93.000=150.999,95.000=151.007,96.000=150.999,97.000=151.007,98.000=300.000,98.500=100.890,99.000=300.000,99.500=100.890,100.000=300.000,100.500=100.890,101.000=150.999,103.000=151.007,104.000=150.999,105.000=151.007,106.000=150.999,108.000=151.007,109.000=150.991,110.000=151.007,112.000=150.999,115.000=151.007,116.000=150.999,119.000=151.007,120.000=150.999,123.000=151.007,124.000=150.999,127.000=151.007,128.000=150.999,131.000=151.007,132.000=150.999,135.000=151.007,136.000=150.999,139.000=151.007,140.000=150.999,143.000=151.007,144.000=150.999,147.000=151.007,148.000=150.999,151.000=151.007,152.000=150.999,154.000=300.000,154.500=100.890,155.000=300.000,155.500=100.897,156.000=300.000,156.500=100.890,157.000=150.999,159.000=151.007,160.000=150.999,162.000=300.000,162.500=100.890,163.000=300.000,163.500=100.897,164.000=302.457,164.500=100.615,165.000=150.999,167.000=151.007,168.000=150.999,170.000=300.000,170.500=100.890,171.000=300.000,171.500=100.897,172.000=300.000,172.500=100.890,173.000=150.999,175.000=151.007,176.000=150.999,178.000=300.000,178.500=100.890,179.000=300.000,179.500=100.897,180.000=300.000,180.500=100.890,181.000=150.999,183.000=151.007,184.000=150.999,187.000=151.007,188.000=150.999,191.000=151.007,192.000=150.999,193.000=300.000,193.500=100.890,194.000=150.999,195.000=151.007,196.000=150.999,199.000=151.007,200.000=150.999,203.000=151.007,204.000=150.999,207.000=151.007,208.000=150.999,211.000=151.007,212.000=150.999,215.000=151.007,216.000=150.999,225.000=151.007,226.000=150.999,235.000=151.007,236.000=150.999,245.000=151.007,246.000=150.999,255.000=151.007,256.000=150.999,264.000=151.007,265.000=150.999,274.000=151.007,275.000=150.999,281.000=100.897,281.500=299.938,282.000=150.999,291.000=151.007,292.000=150.999,301.000=151.007,302.000=150.999,304.000=151.007,305.000=150.999,314.000=151.007,315.000=150.999,324.000=151.007,325.000=150.999,334.000=151.007,335.000=150.999,344.000=151.007,345.000=150.999,346.000=300.000,346.500=100.890,347.000=300.000,347.500=100.890,348.000=300.000,348.500=100.890,349.000=150.999,354.000=300.000,354.500=100.890,355.000=300.000,355.500=100.890,356.000=300.000,356.500=100.890,357.000=150.999,366.000=151.007,367.000=150.999,376.000=151.007,377.000=150.999,382.000=151.007,383.000=150.999,392.000=151.007,393.000=150.999,402.000=300.000,402.500=100.890,403.000=300.000,403.500=100.890,404.000=300.000,404.500=100.890,405.000=150.999,408.000=300.000,408.500=100.890,409.000=300.000,409.500=100.890,410.000=150.999,415.000=300.000,415.500=100.890,416.000=300.000,416.500=100.890,417.000=304.054,417.500=100.439,418.000=150.999,420.000=151.007,421.000=150.999,430.000=151.007,431.000=150.999,449.000=151.007,451.000=150.999,453.000=151.007,454.000=150.991,455.000=151.007,456.000=150.991,457.000=151.007,458.000=150.991,459.000=151.007,460.000=150.991,461.000=151.007,462.000=150.991,463.000=151.007,464.000=150.991,465.000=151.007,466.000=150.991,467.000=151.007,468.000=150.991,469.000=151.007,470.000=150.991,471.000=151.007,472.000=150.999,490.000=151.007,493.000=150.991,494.000=151.007,495.000=150.991,496.000=151.007,497.000=150.991,498.000=151.007,499.000=150.991,500.000=151.007,501.000=150.991,502.000=151.007,503.000=150.991,504.000=151.007,505.000=150.991,506.000=151.007,507.000=150.991,508.000=151.007,509.000=150.991,510.000=151.007,511.000=150.999;
#STOPS:;
#BGCHANGES:;
// cache tags:
#FIRSTBEAT:10.000;
#LASTBEAT:522.000;
#SONGFILENAME:Songs/SDO pack 4/Progressive/Progressive.sm;
#HASMUSIC:1;
#HASBANNER:1;
#MUSICLENGTH:207.672;
// end cache tags

//---------------dance-single - ----------------
#NOTES:
     dance-single:
     :
     Hard:
     31:
     1.000,1.000,1.000,0.862,0.980,1348.000,455.000,179.000,0.000,226.000:
0000
0000
0000
0000
,
0000
0000
0000
0000
,
0000
0000
0000
0000
0000
0000
0000
0000
1210
0001
0001
0320
1000
1000
0231
0001
,
1000
0001
0001
0000
1000
0001
0001
0000
1000
0001
0001
1000
1000
0001
0001
0001
,
1320
0001
0001
0230
1000
0001
0321
0000
1230
0001
0001
0320
1000
0001
0231
0000
,
1000
0001
0001
0000
1000
0001
0001
0000
1000
0001
0001
0000
1000
0001
0001
0000
,
1320
0001
0001
0230
1000
1000
0321
0000
1230
0001
0001
0320
1000
0001
0231
0000
,
1000
0321
0001
0000
1000
0001
0001
0000
1000
0001
0001
0000
1000
0001
0001
0000
,
1230
0001
0001
0320
1000
0001
0231
0000
1320
0001
0001
0000
1000
0001
0001
0000
,
1230
0001
0001
0000
1000
0001
0001
0000
1000
0001
0001
0000
1000
0001
0301
0000
,
1000
1000
0011
1000
0011
1000
0011
1000
0110
1000
1000
0000
0011
1000
0110
0000
,
1100
0001
0001
0000
1100
0001
0110
0000
0011
1000
0110
0000
1100
0001
1100
0000
,
0001
1000
0011
1000
0011
1000
0110
0000
1100
0001
0001
0000
0110
1000
0011
0000
,
0110
0001
1100
0000
0110
1000
0011
0000
0110
0001
1100
0000
0110
1000
0011
0000
,
1000
1000
0110
0000
1100
0001
0110
0000
0011
1000
1000
0000
0110
0001
1100
0000
,
0110
0001
0001
0000
1000
1000
0011
0000
0110
0001
1100
0000
0110
1000
0011
0000
,
0110
0001
0001
0000
1100
0001
0110
0000
0021
1000
1000
0000
0001
1000
1000
0000
,
0100
0001
0001
0000
1030
0001
0001
0000
1000
0001
0001
0000
1000
1000
0001
0001
,
1000
1000
0011
0000
0110
0001
1100
0000
0211
0000
0000
0000
2311
0000
0000
0000
,
3121
0000
0000
0000
0031
0001
1100
0000
0001
0001
0110
0000
1000
1000
0011
0000
,
0001
0001
0110
0000
1100
0001
0110
0000
2011
0000
0000
0000
3121
0000
0000
0000
,
1132
0000
0000
0000
0113
1000
0011
0000
1000
1000
0120
0000
0001
0001
1030
0000
,
0001
0001
1100
0000
0110
1000
0011
0000
1120
0000
0000
0000
1132
0000
0000
0000
,
2113
0000
0000
0000
3010
0010
1100
0000
0001
0001
0110
0000
1000
1000
0011
0000
,
0001
0001
0110
0000
1100
0001
0110
0000
2011
0000
0000
0000
3112
0000
0000
0000
,
1213
0000
0000
0000
1300
1000
0011
0000
1000
1000
0110
0000
1100
0001
0110
0000
,
0011
1000
0110
0000
1100
0001
1100
0001
1200
0001
0001
0000
1000
0001
0001
0000
,
1000
0001
0001
0000
1000
0001
0001
0000
1000
0001
0001
0000
0320
1000
1000
1230
,
0000
0321
0001
0001
0230
1000
1000
1320
0000
0231
0001
0001
0320
1000
1000
0231
,
0001
1000
0001
0001
1000
0001
0001
0000
1000
0001
0001
0000
1000
0001
0001
0000
,
1000
1000
0011
1000
0311
1000
0011
1000
0110
0000
1000
0000
0011
0000
0110
0000
,
1100
0001
0110
0011
0110
1100
0110
0011
,
1000
0110
1100
0110
0011
1000
0110
1100
,
0110
1000
0011
0110
1100
0110
0011
0110
,
0001
1100
0110
0011
0110
0001
1100
0110
,
0011
1000
0001
0110
1100
0110
0011
1000
,
0110
0000
0001
0000
1100
0000
0001
0000
1200
0001
0001
0000
1000
1000
0001
0001
,
1000
1000
0001
0000
1300
1000
0011
0000
0011
1000
0110
0000
0011
1000
0110
0000
,
1000
1000
0011
1000
0011
1000
0011
1000
0112
0000
0000
0000
1123
0000
0000
0000
,
2131
0000
0000
0000
3001
0001
0110
0000
1000
1000
0011
0000
1000
1000
0110
0000
,
0001
0001
1100
0000
0110
1000
0011
0000
1120
0000
0000
0000
2131
0000
0000
0000
,
3211
0000
0000
0000
0311
1000
0110
0000
0001
0001
1100
0000
0110
0001
0001
0000
,
1000
1000
0011
0000
0110
0001
1100
0000
0211
0000
0000
0000
2311
0000
0000
0000
,
3112
0000
0000
0000
0013
0010
1100
0000
0001
0001
0110
0000
1000
1000
0011
0000
,
1000
1000
0110
0000
1100
0001
0110
0000
2011
0000
0000
0000
3112
0000
0000
0000
,
2113
0000
0000
0000
3001
0001
0110
0000
1000
0001
0221
0000
1000
0001
0001
0000
,
1000
0001
0001
0000
1000
0001
0001
0000
1000
0001
0001
0000
1000
0001
0001
0000
,
1000
0001
0001
0000
1000
0001
0001
0000
1000
1000
0001
0001
1000
1000
0001
0000
,
1330
1000
0001
0001
2002
0000
0000
0000
3213
0010
0010
0000
1000
1000
1320
0000
,
0132
0100
0100
0000
1023
1000
1000
0000
0132
0100
0100
0000
0010
0010
0010
0000
,
0100
0100
0100
0000
1000
1000
1000
0113
2001
0001
0001
0000
0010
0010
0010
0000
,
0100
0100
3120
0000
1032
1000
1023
0000
0231
0001
0001
0000
1000
1000
1000
0000
,
0010
0010
0010
0000
2301
0001
0001
0000
3210
0010
0010
0000
1000
1000
1000
0000
,
0001
0001
0001
0000
1320
1000
1032
0000
0123
0100
0100
0000
0001
0001
0001
0000
,
1000
1000
1000
0000
0231
0001
0001
0000
2310
0010
0010
0000
0100
0100
0100
0000
,
3201
0001
0001
0000
1000
1000
1000
0000
0321
0001
0001
0000
0100
0100
0132
0000
,
1000
1000
1000
0000
0123
0100
0100
0000
1230
1000
1000
0000
0001
0001
0001
0000
,
0010
0010
0010
0000
1000
1000
1000
0000
0001
0001
0001
0000
1320
1000
1000
0000
,
0231
0001
0001
0000
2310
0010
0010
0000
3201
0001
0001
0000
0010
0010
0010
0000
,
1000
1000
1000
0000
0321
0001
0001
0000
0132
0100
0100
0000
1000
1000
1023
0000
,
0001
0001
0001
0000
1230
1000
1000
0000
0321
0001
0001
0000
0100
0100
0100
0000
,
1000
1000
1000
0000
0231
0001
0001
0000
2310
0010
0010
0000
0001
0001
0001
0000
,
3201
1000
1000
1000
0321
0001
0001
0000
1230
1000
1000
0000
0010
0010
0010
0000
,
0001
0001
0001
0000
1000
1000
1000
0000
0010
0010
0010
0000
0001
0001
0001
0000
,
1000
1000
1000
0000
0321
0001
0001
0000
0132
0100
0100
0000
1000
1000
1000
0000
,
0010
0010
0010
0000
0100
0100
0100
0000
1000
1000
1000
0000
0100
0100
0100
0000
,
0010
0010
0010
0000
1020
1000
1230
0000
2313
0010
0001
0001
0100
0000
0100
0000
,
0010
0010
0001
0001
0100
0000
0100
0000
0001
0001
0100
0100
0010
0000
0010
0000
,
0001
0001
0100
0100
0010
0000
0010
0000
3201
0001
1000
1320
0100
0000
0132
0000
,
1023
1000
0100
0100
0001
0000
0001
0000
0100
0100
1000
1000
0001
0000
0001
0000
,
1030
1000
0001
0001
2002
0000
0000
0000
3113
0000
0011
0000
0110
0000
1100
0000
,
0110
0000
0011
0000
0011
0000
0210
0000
1000
0001
0001
0000
1000
0001
0001
0000
,
1000
0001
0001
0000
1000
0001
0001
0000
0311
0000
0110
0000
1100
0000
0110
0000
,
0012
1000
1000
0000
0113
0000
2100
0000
0001
0000
3210
0000
1000
0000
0312
0000
,
0100
1023
0001
1130
0011
1000
0110
1100
,
0110
0000
1000
0000
0011
0000
0110
0000
1100
0000
0001
0110
0001
1000
1002
0000
,
1000
1000
0110
0000
1000
0110
1000
0000
0110
1000
0113
0000
0011
0000
0110
0000
,
0011
0000
0110
0000
1100
0000
0210
0000
1000
0001
0001
0000
1000
0001
0001
0000
,
1300
0001
0010
0100
1000
0100
0010
0001
0110
0000
1100
0000
0110
0000
0011
0000
,
0110
1100
0110
0011
0011
0110
1100
0110
,
0011
0110
1100
0011
0110
1100
0110
0011
,
1100
0000
0011
0000
0110
0000
1100
0000
0011
0000
0110
0000
1100
0011
1100
0000
,
0110
0011
0110
1100
0110
1101
0110
0110
,
1011
0110
0110
1101
0110
0110
1011
0110
,
1101
0000
0110
0000
1011
0000
0110
0000
1011
0000
1100
0011
1000
0000
0111
0000
,
0011
1100
0001
0000
1110
0000
0011
1100
0012
0000
1000
0123
1000
0000
2130
0000
,
0001
0000
0110
0000
3011
1000
0011
1000
0112
0000
0000
0000
1123
0000
0000
0000
,
1132
0000
1003
0110
1100
0110
1000
0011
,
1000
0110
1100
0110
1012
0000
2113
0000
,
3211
0000
0000
0000
1300
0000
0011
0000
1000
0000
0012
0100
1000
0100
0010
0100
,
1000
0100
0010
0100
1000
0100
0010
0100
1000
0100
0010
0100
1000
0100
0010
0100
,
1000
0100
0010
0100
1000
0100
0010
0100
1000
0100
0010
0100
1000
0100
0010
0100
,
0013
0001
0010
0100
1000
0100
0010
0001
1110
0000
0000
0000
0011
0000
0000
0000
,
0111
0000
1000
0000
0110
0000
1000
0000
0111
0000
1000
0011
1000
0000
0011
0000
,
1110
0000
1101
0000
0111
0000
1100
0001
,
1110
0000
0001
0000
0000
0000
0110
0000
1101
0000
0010
1100
0001
0000
0110
0000
,
1101
0000
1011
0000
1101
0000
0011
0100
,
1011
0000
0100
0000
0011
0000
1000
0000
0111
0000
1000
0110
0001
0000
1100
0000
,
0111
0000
0000
0000
1101
0000
0000
0000
0111
0000
1000
0000
0011
0000
0100
0011
,
1100
0011
0100
0011
1110
0011
0110
0011
,
1020
0001
1000
1000
0231
1000
0001
0001
2310
0000
0000
0000
3211
0000
0000
0000
,
1312
0000
0000
0000
1003
0000
1000
0110
1000
0011
1000
0011
1000
1000
0110
0000
,
1012
0000
0000
0000
2113
0000
0000
0000
3011
0100
0100
0011
1000
1000
0110
0000
,
1000
1000
0011
0000
1000
1000
0110
0000
1000
1000
0110
0000
1102
0000
0000
0000
,
2113
0000
0000
0000
3211
0000
0000
0000
1302
1000
1000
0000
0123
0100
0100
0000
,
1031
0001
0001
0000
0120
0100
0100
0000
2031
0001
0001
0000
0010
0010
0010
0000
,
3102
0100
0100
0000
1000
1000
1000
0000
2103
0100
0100
0000
0001
0001
0001
0000
,
0010
0010
0010
0000
0001
0001
0001
0000
3210
0010
0010
0000
1000
1000
1000
0000
,
0001
0001
0001
0000
1320
1000
1000
0000
0132
0100
0100
0000
0010
0010
0010
0000
,
1000
1000
1000
0000
0100
0100
0100
0000
0010
0010
0010
0000
1000
1000
1000
0000
,
0100
0100
0100
0000
1000
1000
0113
1100
0012
0010
1000
1000
0100
0000
0100
0000
,
0010
0010
1000
1000
0100
0000
0100
0000
0010
0010
1000
1000
0100
0000
0100
0000
,
0010
0010
1000
1023
0100
0000
2130
0000
0001
3201
0010
0010
1302
0000
1023
0000
,
0001
2031
0100
0100
0010
0000
0010
0000
0001
0001
0100
0100
0010
0000
0010
0000
,
0100
0100
0010
0010
0001
0000
0001
0000
3210
0010
0001
2301
0100
0000
3120
0000
,
1000
1000
0001
0001
0100
0000
0100
0000
1000
1000
0001
0001
0100
0000
0100
0000
,
2031
0001
0100
0100
0010
0000
0010
0000
3201
0001
1000
1000
0010
0000
0010
0000
,
1302
1000
0010
0010
0100
0000
0100
0000
1023
1000
0001
0001
0100
0000
0100
0000
,
2132
0100
0010
0010
0100
0000
0100
0000
3123
0100
0001
0001
1000
0000
1000
0000
,
0100
0100
0001
0001
2130
0000
0100
0000
3210
0010
0001
0001
1000
0000
1000
0000
,
0010
0010
1000
1000
0312
0000
0010
0000
1023
1000
0001
0001
0100
0000
0100
0000
,
1000
1000
0100
0100
2031
0000
0001
0000
3210
0010
0001
0001
1000
0000
1000
0000
,
0010
0010
1000
1000
0312
0000
0010
0000
0213
0010
1000
1302
0010
0000
0213
0000
,
1000
1302
0010
0010
0100
0000
0100
0000
1000
1000
0010
0010
0100
0000
0100
0000
,
1000
1000
0100
0100
0010
0000
1103
0011
2100
0100
0001
0001
0010
0000
0010
0000
,
0100
0100
0001
0001
0100
0000
3011
1100
0012
0010
1000
1000
0100
0000
0100
0000
,
1000
1000
0010
0010
0100
0000
0100
0000
2023
0000
0000
0000
0000
0000
0000
0000
,
0000
0000
0000
0000
,
0000
0000
0000
0000
,
0000
0000
0000
0000
,
0232
0000
3303
0000
,
0000
0000
0000
0000
,
0000
0000
0000
0000
,
0000
0000
0000
0000
,
0000
0000
0000
0000
,
0000
0000
0000
0000
,
0000
0000
0000
0000
,
0000
0000
0000
0000
,
0000
0000
0000
0000
,
0000
0000
0000
0000
,
0000
0000
0000
0000
;
